<?xml version="1.0" standalone="no"?>
<!DOCTYPE svg PUBLIC "-//W3C//DTD SVG 1.1//EN" "http://www.w3.org/Graphics/SVG/1.1/DTD/svg11.dtd" >
<svg xmlns="http://www.w3.org/2000/svg">
<metadata></metadata>
<defs>
<font id="Myanmar3Regular" horiz-adv-x="1150" >
<font-face units-per-em="2048" ascent="1638" descent="-410" />
<missing-glyph horiz-adv-x="512" />
<glyph horiz-adv-x="0" />
<glyph horiz-adv-x="2048" />
<glyph unicode="&#xd;" horiz-adv-x="512" />
<glyph unicode=" "  horiz-adv-x="512" />
<glyph unicode="&#x09;" horiz-adv-x="512" />
<glyph unicode="&#xa0;" horiz-adv-x="512" />
<glyph unicode="!" d="M308 142q0 42 28 86q52 80 144 80h8q92 -4 140 -92q50 -87 -5 -166.5t-143 -79.5h-12q-92 0 -140 92q-20 38 -20 80zM326 1384q0 106 80 106h142q74 0 74 -104q0 -16 -2 -36l-96 -866h-110l-86 866q-2 18 -2 34z" />
<glyph unicode="&#x22;" d="M218 768v522q0 138 104 138h120q94 0 46 -138l-182 -522h-88zM614 768v522q0 138 104 138h120q94 0 46 -138l-182 -522h-88z" />
<glyph unicode="#" d="M92 292v140h172v408h-172v140h172v400h140v-400h318v400h144v-400h194v-140h-194v-408h194v-140h-194v-394h-144v394h-318v-394h-140v394h-172zM404 432h318v408h-318v-408z" />
<glyph unicode="$" d="M148 298q-12 86 36 160q40 58 107 54t103 -58t30 -136t-48 -94q112 -86 216 -80q180 10 244 110q84 130 -16 238q-36 36 -88 52l-314 122q-182 62 -239 243t57 319q124 156 336 159t342 -149q46 -52 52 -100q20 -106 -12 -130q-58 -48 -120 -70q-68 -12 -108 84 q-30 70 8 160q-112 32 -182 16q-144 -30 -184 -92q-70 -112 2 -192q38 -44 86 -66l326 -126q170 -60 214 -182q84 -206 4 -372q-102 -214 -404 -212q-156 0 -306 116q-118 92 -142 226zM504 -338v1970h140v-1970h-140z" />
<glyph unicode="%" d="M-16 -306l1012 1970h170l-1012 -1970h-170zM66 1280q68 152 235 169t265 -119t28 -288t-236 -168t-264 119t-28 287zM189 1182q-17 -84 46 -138t145 -28t97 109t-49 139t-142 28q-80 -26 -97 -110zM568 338q68 152 234 169t264 -119q96 -138 27 -290t-235 -168t-263 120 t-27 288zM689 238q-15 -82 48 -137t143 -28t97 110t-48 139t-145 27t-95 -111z" />
<glyph unicode="&#x26;" d="M28 378q0 210 216 348q-38 30 -68 56q-126 114 -126 267t168 285q116 94 204 92q218 -6 356 -158t-118 -414l-106 68q182 184 54 288q-70 62 -188 55t-166 -127q-24 -60 -24 -104q-4 -124 84 -180l548 -338q14 80 -2 174t-44 134h154q75 -184 34 -398l156 -116l-72 -132 l-124 88q-38 -134 -154 -216t-298 -82q-270 0 -404 166q-80 102 -80 244zM202 382q0 -156 146 -232q82 -38 166 -36q234 6 306 254l-428 264q-82 -30 -136 -101t-54 -149z" />
<glyph unicode="'" d="M416 768v522q0 138 104 138h120q94 0 46 -138l-182 -522h-88z" />
<glyph unicode="(" d="M376 678v2q2 694 496 984h196q-516 -342 -520 -982v-10q0 -626 520 -976h-196q-496 286 -496 982z" />
<glyph unicode=")" d="M112 -304q520 350 520 976v10q-4 640 -520 982h196q494 -290 496 -984v-2q0 -696 -496 -982h-196z" />
<glyph unicode="*" d="M204 628q-66 132 90 178l200 62l-214 82q-140 54 -76 158q48 82 170 -14l166 -134l-50 206q-38 158 92 158q124 0 96 -158l-38 -206l162 138q108 90 152 0q72 -124 -70 -170l-194 -60l188 -72q138 -54 69 -149t-169 -3l-138 130l34 -186q28 -168 -90 -160q-102 8 -78 156 l34 192l-152 -136q-130 -114 -184 -12z" />
<glyph unicode="+" d="M102 438v168h392v386h164v-386h390v-168h-386v-392h-168v392h-392z" />
<glyph unicode="," d="M98 -218l18 2q254 24 304 110q24 38 32 80q-98 2 -130 94q-10 30 -10 72t34 92q50 76 134 76h12q94 -6 140 -90q20 -38 20 -96q0 -164 -72 -290q-100 -176 -434 -176h-48v126z" />
<glyph unicode="-" d="M102 440v166h946v-166h-946z" />
<glyph unicode="." d="M330 62q-44 86 9 167t151 78t142 -91t-10 -170t-151 -76t-141 92z" />
<glyph unicode="/" d="M-16 -306l1012 1970h170l-1012 -1970h-170z" />
<glyph unicode="0" d="M116 672q0 300 146 514q136 204 319 204t319 -184q158 -210 158 -526t-140 -530q-140 -204 -333 -204t-331 213t-138 513zM272 676q0 -258 116 -424q88 -124 198 -124q136 0 236 186q82 154 82 352q0 266 -116 430q-86 120 -202 120q-140 0 -238 -188q-76 -152 -76 -352z M358 504q0 22 8 50l372 372q80 -4 80 -72q0 -24 -10 -58l-356 -356q-12 -2 -24 -2q-70 0 -70 66z" />
<glyph unicode="1" d="M4 930l528 498h160v-1254l324 -44v-130h-842v130l340 44v966l-298 -210h-212z" />
<glyph unicode="2" d="M148 0v170l694 702q28 40 28 88q0 170 -140 228q-58 24 -114 24t-84 -2q-146 -16 -188 -124q-24 -64 -25 -112t19 -94h-170q-18 46 -18 102q0 184 158 312q64 52 137 73t149 21q218 0 344 -146q96 -112 96 -280q0 -120 -106 -226l-580 -576h554l38 228h122v-388h-914z " />
<glyph unicode="3" d="M148 276h172q32 -74 110 -112t162 -38q194 0 264 124q32 62 32 100q0 124 -154 216q-56 40 -254 44v146q226 10 340 120q44 46 44 108q0 152 -136 208q-60 24 -136 24q-166 0 -252 -134h-174q28 126 144 214q118 94 282 94q214 0 338 -144q96 -110 96 -250 q0 -164 -200 -304q220 -134 220 -348t-178 -326q-112 -68 -299 -68t-283 102q-126 138 -138 224z" />
<glyph unicode="4" d="M78 454v140l560 834h222v-798h228v-170h-228v-282l176 -24v-154h-670v134l328 44v276h-616zM280 628h418v598z" />
<glyph unicode="5" d="M120 316h180q36 -80 119 -124t173 -44q198 0 280 146q36 68 34 104q-10 152 -158 240q-72 42 -220 42h-384l54 674h764v-346h-122l-24 184h-460l-28 -352h200q198 0 316 -68q230 -134 230 -372t-186 -364q-118 -80 -317 -80t-303 114q-136 146 -148 246z" />
<glyph unicode="6" d="M106 584v24q0 276 174 506q274 364 638 232l170 -62l-50 -104l-158 46q-210 60 -400 -132q-144 -144 -194 -388q90 112 342 140q16 2 34 2q186 0 312 -158q106 -128 106 -294q0 -266 -194 -384q-109 -66 -270 -66q-286 0 -408 222q-102 184 -102 416zM302 460 q26 -292 252 -350q30 -8 80 -8q214 0 274 172q18 46 18 114q0 160 -132 240q-64 40 -148 40q-221 0 -344 -208z" />
<glyph unicode="7" d="M96 918v434h1006v-130q-310 -348 -374 -636q-68 -326 -62 -420l212 -22v-144h-628v144l236 22q20 296 94 518q98 280 290 502h-596l-54 -268h-124z" />
<glyph unicode="8" d="M104 342q0 208 210 346q-190 132 -190 313t160 307q124 96 292 96q214 0 350 -148q98 -114 98 -258q0 -178 -188 -310q208 -138 208 -351t-182 -327q-120 -70 -290 -70q-260 0 -388 164q-80 100 -80 238zM274 348q0 -154 142 -228q72 -34 160 -34q196 0 274 132 q32 60 32 124q0 172 -136 226q-60 38 -170 44q-162 0 -256 -126q-46 -62 -46 -138zM300 988q0 -142 136 -208q64 -30 140 -30q180 0 256 128q26 46 26 108q0 154 -142 214q-60 26 -140 26q-210 0 -254 -128q-20 -44 -22 -110z" />
<glyph unicode="9" d="M138 28l54 104l132 -42q192 -62 392 128q132 130 184 394q-84 -110 -324 -138q-18 -6 -36 -6q-174 0 -296 164q-98 128 -98 294q0 272 180 392q111 68 260 68q272 0 388 -228q96 -184 96 -420v-22q0 -282 -162 -516q-264 -372 -606 -236zM294 936q0 -162 126 -244 q58 -40 134 -40q207 0 332 212q-26 294 -242 356q-28 8 -76 8q-202 0 -260 -174q-14 -50 -14 -118z" />
<glyph unicode=":" d="M330 122q-44 86 9 167t151 78t142 -91t-10 -170t-151 -76t-141 92zM330 778q-44 86 9 167t151 78t142 -91t-10 -170t-151 -76t-141 92z" />
<glyph unicode=";" d="M98 -156l18 2q254 24 304 110q24 38 32 80q-98 2 -130 94q-10 30 -10 72t34 92q50 76 134 76h12q94 -6 140 -90q20 -38 20 -96q0 -164 -72 -290q-100 -176 -434 -176h-48v126zM332 780q-44 86 9 167t151 78t142 -91t-10 -170t-151 -76t-141 92z" />
<glyph unicode="&#x3c;" d="M156 552l762 562l98 -134l-576 -430l576 -426l-100 -136l-758 562z" />
<glyph unicode="=" d="M102 206v166h946v-166h-946zM102 680v166h946v-166h-946z" />
<glyph unicode="&#x3e;" d="M146 122l576 426l-576 430l98 134l762 -562l-760 -564z" />
<glyph unicode="?" d="M118 1114q22 130 150 212q174 114 386 98q224 -22 356 -190q100 -126 22 -302q-56 -134 -160 -174l-164 -64q-72 -30 -106 -128l8 -86h-148q-48 72 12 210q44 94 148 142l108 48q68 30 92 52q108 94 18 220q-70 96 -258 106q-108 8 -226 -74q42 -14 48 -90t-24 -122 q-42 -56 -112 -60t-114 48q-48 70 -36 154zM384 62q-44 86 10 167t151 78t141 -91t-10 -170t-150 -76t-142 92z" />
<glyph unicode="@" d="M-24 633q0 319 194 543q182 216 442 216q314 0 444 -188q180 -260 112 -606q-58 -294 -202 -322q-132 -28 -192 70q-70 -70 -221 -85t-205 109q-20 38 -20 88q0 140 134 208q90 42 155 36t117 -24v62q0 134 -82 140q-162 16 -182 -106l-104 60q74 202 232 208 q136 8 202 -68q84 -94 84 -234v-190q0 -116 58 -106q94 12 82 368q-2 132 -92 278q-72 118 -324 118q-210 0 -350 -200q-114 -160 -114 -372q0 -272 170 -448q130 -132 294 -132q128 0 240 122l138 -106q-154 -206 -374 -206q-266 0 -451 224t-185 543zM488 466 q0 -32 54 -44h30q24 0 152 64v40q-36 8 -98 10q-86 8 -126 -42q-12 -12 -12 -28z" />
<glyph unicode="A" d="M0 0v142l108 20l382 1264h158l390 -1264l112 -20v-142h-378v142l100 20l-88 294h-434l-84 -294l100 -20v-142h-366zM400 602h342l-170 620z" />
<glyph unicode="B" d="M2 0v124l168 46v1012l-168 44v124h656q170 0 269 -144q76 -111 76 -214q0 -31 -7 -62q-30 -132 -94 -178q80 -38 156 -212q31 -72 31 -151q0 -74 -27 -153q-76 -236 -338 -236h-722zM328 170h390q128 0 186 138q23 52 23 101q0 64 -40 123q-71 104 -209 104h-350v-466z M328 806h350q96 0 142 110q18 40 18 79q0 50 -29 99q-51 88 -151 88h-330v-376z" />
<glyph unicode="C" d="M112 673q0 297 154 507q147 204 346 204h4q134 -2 278 -120q48 -40 91 -100q33 -46 33 -107q0 -19 -3 -39q-13 -86 -79 -116q-22 -11 -43 -11q-39 0 -73 39q-42 49 -42 121q0 17 2 35q2 32 16 54q-82 72 -182 72q-146 0 -258 -188q-88 -148 -88 -348q0 -256 132 -418 q90 -108 214 -124q17 -3 33 -3q154 0 265 221l134 -62q-32 -70 -76 -134q-150 -202 -358 -202t-354 214q-146 208 -146 505z" />
<glyph unicode="D" d="M0 0v126l170 44v1012l-170 44v124h564q294 0 443 -336q75 -170 75 -340q0 -167 -72 -334q-150 -340 -442 -340h-568zM330 170h238q208 0 316 254q52 128 52 251q0 128 -56 253q-112 254 -316 254h-234v-1012z" />
<glyph unicode="E" d="M0 0v146l166 24v1016l-166 18v152h1028v-404h-106l-46 234h-550v-418h278l24 136h106v-436h-106l-24 142h-278v-440h550l46 236h106v-406h-1028z" />
<glyph unicode="F" d="M-2 0v146l168 24v1018l-168 18v150h1028v-402h-102l-48 234h-550v-420h280l18 136h110v-438h-110l-18 144h-280v-440l338 -46v-124h-666z" />
<glyph unicode="G" d="M124 660q0 312 151 519q150 205 349 205h4q132 -2 276 -120q48 -40 91 -99q33 -45 33 -107q0 -18 -3 -38q-13 -86 -78 -116q-22 -10 -42 -10q-40 0 -74 39q-43 49 -43 125q0 14 2 30q4 32 16 56q-80 68 -180 68q-148 0 -260 -186q-88 -148 -88 -346q0 -270 112 -407 q107 -131 205 -131h9q148 4 254 176v192l-286 52v154h444v-892h-100l-56 270q-115 -130 -246 -130h-8q-202 6 -354 210q-128 174 -128 486z" />
<glyph unicode="H" d="M0 0v148l168 22v1018l-168 18v150h488v-150l-160 -18v-420h512v412l-160 24v152h470v-152l-150 -24v-1016l150 -18v-146h-470v146l160 18v446h-512v-440l160 -22v-148h-488z" />
<glyph unicode="I" d="M202 0v132l292 30v1018l-292 42v134h746v-130l-294 -46v-1018l294 -34v-128h-746z" />
<glyph unicode="J" d="M84 66q2 128 80 232q38 49 99 49q11 0 22 -1q77 -10 105 -78q12 -30 12 -57q0 -48 -38 -85q-34 -33 -74 -33q-30 0 -64 19q-4 -32 -4 -36q0 -176 142 -276q70 -50 154 -50q62 0 131 27q163 63 163 199v1206l-354 44v128h692v-142l-192 -30v-1218q0 -218 -243 -322 q-107 -46 -204 -46q-125 0 -235 75q-192 130 -192 385v10z" />
<glyph unicode="K" d="M2 0v148l164 22v1018l-164 20v148h484v-148l-160 -20v-504q202 110 254 172q222 246 250 500h348v-110l-220 -60q-100 -274 -290 -468q204 -202 352 -556l158 -14v-148h-470v148l152 14q-108 220 -312 462q-96 -72 -222 -118v-336l160 -22v-148h-484z" />
<glyph unicode="L" d="M-2 2v146l168 22v1016l-168 20v150h652v-128l-324 -42v-1014h544l50 234h110v-404h-1032z" />
<glyph unicode="M" d="M0 0v148l166 22v1016l-166 22v148h268l322 -700l302 700h258v-152l-152 -24v-1018l152 -14v-148h-470v148l158 14v722l-162 -436h-166l-184 452v-730l160 -22v-148h-486z" />
<glyph unicode="N" d="M-2 0v148l166 22v1016l-166 20v150h266l578 -938v766l-164 20v152h472v-152l-148 -20v-1022l148 -14v-148h-254l-568 942v-772l160 -22v-148h-490z" />
<glyph unicode="O" d="M104 672q0 300 146 514q136 204 319 204t319 -184q158 -210 158 -526t-140 -530q-140 -204 -333 -204t-331 213t-138 513zM260 676q0 -258 116 -424q88 -124 198 -124q138 0 236 186q82 154 82 352q0 266 -116 430q-86 120 -202 120q-140 0 -238 -188q-76 -152 -76 -352z " />
<glyph unicode="P" d="M0 0v126l170 44v1012l-170 46v122h692q172 0 278 -142q81 -109 81 -216q0 -32 -7 -64q-68 -294 -334 -294h-380v-464l426 -44v-126h-756zM330 804h380q96 0 152 110q19 38 19 77q0 54 -37 111q-54 80 -152 80h-362v-378z" />
<glyph unicode="Q" d="M120 672q0 300 139 509t323 209t322 -184q158 -210 158 -544t-140 -512q-22 -28 -40 -52v-140q0 -74 64 -98q54 -19 102 -19q55 0 102 25q30 16 34 32l82 -88q-18 -40 -66 -70q-99 -66 -191 -66q-84 0 -163 56q-124 86 -124 178v92q-84 -54 -130 -54q-198 0 -335 213 t-137 513zM272 697q0 -183 44 -305q4 10 8 14q72 160 220 198q27 7 53 7q85 0 157 -71q50 -46 88 -156q62 132 62 282q0 272 -120 434q-88 116 -196 116q-140 0 -240 -184q-76 -152 -76 -335zM452 320q-13 -30 -13 -59q0 -43 31 -83q54 -50 125 -50t133 72v70q0 38 -26 76 q-46 59 -117 59q-8 0 -17 -1q-82 -8 -116 -84z" />
<glyph unicode="R" d="M-2 2v122l152 46v1012l-152 46v122h642q162 0 272 -152q73 -105 73 -207q0 -32 -7 -63q-62 -278 -256 -294l66 -66q98 -98 122 -216l32 -174l208 -56v-122h-350l-34 290q-10 84 -120 192l-158 152h-180v-464l154 -44v-126zM308 804h350q94 0 144 110q18 38 18 76 q0 51 -32 102q-56 90 -148 90h-332v-378z" />
<glyph unicode="S" d="M148 298q-2 17 -2 34q0 67 38 126q37 54 98 54h9q67 -4 103 -58q31 -46 31 -113q0 -11 -1 -23q-6 -82 -48 -94q105 -80 202 -80h14q180 10 244 110q38 59 38 114q0 65 -54 124q-36 36 -88 52l-314 122q-182 62 -239 243q-19 60 -19 116q0 111 76 203q124 156 336 159h8 q206 0 334 -149q46 -52 52 -100q8 -41 8 -69q0 -46 -20 -61q-58 -48 -120 -70q-8 -1 -15 -1q-58 0 -93 85q-13 31 -13 66q0 44 21 94q-75 21 -131 21q-28 0 -51 -5q-144 -30 -184 -92q-35 -55 -35 -103q0 -49 37 -89q38 -44 86 -66l326 -126q170 -60 214 -182 q43 -106 43 -201q0 -90 -39 -171q-101 -212 -398 -212h-6q-156 0 -306 116q-118 92 -142 226z" />
<glyph unicode="T" d="M88 932v424h974v-424h-106l-38 252h-256v-1024l296 -30v-130h-738v134l286 26v1024h-266l-50 -252h-102z" />
<glyph unicode="U" d="M2 1206v150h486v-150l-160 -18v-772q0 -152 128 -230q56 -36 115 -36q61 0 125 38q148 86 148 226v768l-166 22v152h472v-154l-150 -20v-766q0 -252 -226 -378q-103 -59 -203 -59q-98 0 -193 57q-214 124 -214 376v776z" />
<glyph unicode="V" d="M0 1354h366v-148l-100 -20l316 -1040l290 1040l-96 20v148h374v-148l-112 -20l-388 -1256h-156l-384 1256l-108 20z" />
<glyph unicode="W" d="M0 1356h364v-148l-110 -26l96 -1014l154 542h146l162 -536l80 1008l-112 26v148h370v-148l-118 -22l-120 -1250h-172l-160 558l-166 -558h-174l-128 1250l-110 22z" />
<glyph unicode="X" d="M0 144l158 24l318 504l-306 514l-168 22l-2 148h486v-150l-156 -18l244 -402l260 398l-158 20v152h474v-152l-148 -22l-330 -508l330 -512l148 -18v-144h-472v144l158 16l-258 402l-248 -394l158 -22l-2 -146h-484z" />
<glyph unicode="Y" d="M0 1208v148h486v-148l-156 -20l256 -536l248 532l-150 20v152h466v-152l-110 -16l-374 -698v-328l292 -32v-130h-738v132l286 30v332l-364 696z" />
<glyph unicode="Z" d="M82 934v422h980v-128l-746 -1058h604l38 254h110v-424h-980v104l756 1082h-610l-46 -252h-106z" />
<glyph unicode="[" d="M496 -248v1860h554v-142h-376v-1576h376v-144z" />
<glyph unicode="\" d="M-16 1664h170l1012 -1970h-170z" />
<glyph unicode="]" d="M126 -106h376v1576h-376v142h554v-1860l-554 -2v144z" />
<glyph unicode="^" d="M150 830l428 750h2l432 -750h-210l-222 400l-222 -400h-208z" />
<glyph unicode="_" d="M0 -146h1150v-166h-1150v166z" />
<glyph unicode="`" d="M430 1290q-48 138 46 138h120q104 0 104 -138v-522h-88z" />
<glyph unicode="a" d="M146 248q-1 14 -1 28q0 129 103 216q98 80 300 80h236l-8 66q-10 84 -106 114q-69 22 -127 22q-56 0 -103 -20l-142 -54l-52 148l152 58q79 29 157 30q88 0 175 -38q174 -80 200 -254l60 -456q8 -56 54 -62q12 -4 28 -4q20 0 46 6l32 4l36 -82l-16 -14q-49 -47 -109 -47 q-40 0 -85 21q-60 28 -98 90l-32 -12q-240 -102 -330 -114q-25 -3 -49 -3q-104 0 -173 51q-136 102 -148 226zM371 163q41 -25 101 -25q29 0 62 6q154 28 294 112l-20 160h-202q-132 0 -238 -50q-59 -30 -59 -96q0 -69 62 -107z" />
<glyph unicode="b" d="M-2 0v146l154 24v1020h-154v82l222 84h94v-626q98 174 252 194q39 5 75 5q204 0 291 -157q84 -152 84 -296q0 -48 -9 -94q-37 -188 -223 -316q-96 -66 -318 -66h-468zM314 164h150q184 0 256 56q94 72 126 204q8 36 8 72q0 94 -57 184q-58 92 -169 92q-39 0 -86 -12 q-124 -30 -206 -248q-22 -58 -22 -178v-170z" />
<glyph unicode="c" d="M157 600q75 264 325 324q44 11 88 10q171 0 334 -162q6 -6 32 -47q20 -31 19 -61q0 -9 -1 -18q-20 -94 -78 -128q-27 -16 -57 -16q-33 0 -69 20q-46 24 -54 96q-2 14 -2 28q0 53 26 88q-65 41 -132 41q-50 0 -100 -23q-154 -70 -186 -202q-11 -49 -11 -96q0 -118 71 -226 q68 -96 242 -96q104 2 186 100l42 50l122 -90l-34 -48q-124 -174 -318 -174q-250 0 -352 138q-116 158 -116 332q0 79 23 160z" />
<glyph unicode="d" d="M144 536q38 192 222 324q94 66 298 66h182v264h-170v82l240 82h90v-1126q0 -56 26 -75t58 -11l24 6l36 -84l-16 -14q-68 -59 -134 -59q-41 0 -82 23q-54 30 -62 88l-10 72q-92 -172 -264 -196q-41 -6 -78 -6q-198 0 -286 162q-84 157 -84 304q0 49 10 98zM299 478 q-7 -36 -7 -70q0 -101 60 -182q66 -90 161 -90q47 0 101 22q234 94 234 411v11l-2 176h-180q-162 0 -238 -56q-102 -78 -129 -222z" />
<glyph unicode="e" d="M190 224q-57 115 -57 229q0 125 68 249q127 230 365 230h16q274 -10 384 -250q49 -105 49 -237q0 -41 -5 -85h-708l12 -32q70 -186 256 -188h17q233 0 297 52l58 -128q-136 -92 -348 -92h-26q-258 6 -378 252zM292 508h568q1 2 1 6q0 17 -19 74q-64 176 -258 184h-14 q-136 0 -238 -152q-26 -38 -40 -112z" />
<glyph unicode="f" d="M106 0v126l172 42v516h-140v162h140v134q0 216 148 318q116 76 248 76q188 0 260 -102q19 -27 19 -65q0 -21 -6 -46q-17 -69 -95 -92q-24 -7 -46 -7q-48 0 -83 35q-37 37 -37 88q0 20 6 43q-256 0 -256 -262v-120h512v-162h-512v-516l382 -64v-104h-712z" />
<glyph unicode="g" d="M36 -73q0 122 168 207q-71 53 -71 121q0 23 9 49q24 70 114 116l-46 34q-68 83 -68 172q0 67 39 137q91 163 301 177q20 1 39 1q121 0 211 -55l80 70h360l-94 -164h-246q51 -72 51 -149q0 -66 -38 -136q-83 -151 -249 -163q-56 -14 -98 -14t-91 -7t-55 -41v-2 q0 -17 73 -41q69 -22 144 -22h18h8q86 0 273 -61q104 -34 180 -126q61 -73 61 -135q0 -49 -37 -91q-150 -176 -393 -213q-59 -9 -116 -9q-181 0 -349 88q-178 95 -178 257zM228 -56q-26 -26 -26 -51q0 -48 95 -93q116 -54 266 -54q37 0 77 3q198 17 261 97q20 26 20 50 q0 52 -91 100q-101 53 -237 53q-45 0 -93 -6q-196 -23 -272 -99zM344 664q-7 -18 -7 -37q0 -38 28 -76q41 -57 107 -71q20 -2 38 -2q59 0 100 20q84 42 92 98q1 9 1 18q0 83 -68 133q-50 36 -111 36q-32 0 -66 -9q-76 -22 -114 -110z" />
<glyph unicode="h" d="M-2 2v100l128 58v1032h-128v78l196 82h94v-620q102 164 322 196q28 4 55 4q154 0 271 -136q64 -74 64 -354v-286l150 -40v-116h-470v116l160 40v266q0 192 -52 280q-34 58 -130 58q-50 0 -116 -16q-156 -36 -234 -250q-20 -56 -20 -170v-164l170 -38v-122z" />
<glyph unicode="i" d="M222 0v134l282 30v570h-206v96l250 68h120v-734l294 -36v-128h-740zM425 1192q-19 32 -19 63q0 37 27 73q46 62 129 62h10q90 -4 131 -74q19 -32 18 -63q0 -37 -26 -72q-47 -62 -131 -62h-8q-90 3 -131 73z" />
<glyph unicode="j" d="M5 -192q19 68 97 91q25 7 46 7q48 0 82 -34q36 -36 36 -89q0 -21 -6 -45q22 2 44 2q204 0 204 238v756h-208v94l256 70h110v-932q0 -190 -144 -298q-102 -76 -246 -76q-190 0 -260 104q-18 27 -18 63q0 23 7 49zM425 1192q-19 32 -19 63q0 37 27 73q46 62 129 62h10 q90 -4 131 -74q19 -32 19 -63q0 -37 -27 -72q-47 -62 -131 -62h-8q-90 3 -131 73z" />
<glyph unicode="k" d="M0 0v102l126 60v1028h-126v82l198 80h92v-868q252 134 428 446h230v-160h-140q-84 -134 -186 -228q244 -152 378 -386l150 -40v-116h-470v116l142 40q-104 172 -318 300q-92 -84 -214 -148v-146l170 -42v-120h-460z" />
<glyph unicode="l" d="M202 0v134l284 30v1026h-168v86l234 78h100v-1190l296 -34v-130h-746z" />
<glyph unicode="m" d="M0 0v100l126 64v570h-126v80l200 86h90v-104q87 123 161 122q73 0 133 -120l20 -40q106 172 194 172q77 0 140 -134q58 -126 58 -376v-262l154 -42v-116h-312v488q0 248 -63 248h-5q-132 -20 -132 -334v-240l72 -42v-120h-228v432q-7 286 -73 286q-10 0 -21 -6 q-98 -56 -98 -302v-246l68 -42v-122h-358z" />
<glyph unicode="n" d="M0 0v100l126 64v570h-126v80l198 86h92v-168q102 166 328 200q28 4 54 4q155 0 266 -140q58 -74 58 -346v-292l154 -38v-120h-474v120l160 38v270q0 194 -46 270q-37 62 -134 62q-47 0 -108 -14q-258 -60 -258 -414v-168l170 -42v-122h-460z" />
<glyph unicode="o" d="M152 596q78 268 328 327q56 13 108 13q181 0 315 -160q119 -142 119 -313q0 -77 -24 -161q-78 -268 -327 -328q-56 -13 -108 -13q-180 0 -315 160q-120 143 -120 315q0 77 24 160zM307 554q-17 -56 -17 -109q0 -109 73 -203q87 -111 207 -111q31 0 64 7q162 36 216 212 q18 58 18 112q0 110 -74 202q-86 108 -204 108q-33 0 -68 -8q-162 -38 -215 -210z" />
<glyph unicode="p" d="M0 -304l166 66v982h-166v84l230 86h98v-172q82 160 284 186q38 5 73 5q199 0 289 -164q79 -143 79 -286q0 -49 -10 -99q-37 -192 -215 -320q-88 -64 -314 -64h-186v-238l276 -66v-102h-604v102zM328 164h180q166 0 244 54q146 100 146 282q0 92 -60 183t-174 91 q-40 0 -88 -14q-160 -46 -228 -252q-20 -62 -20 -176v-168z" />
<glyph unicode="q" d="M149 379q-9 45 -9 92q0 143 84 305q72 139 281 139q40 0 85 -5q204 -24 278 -168v172h92l194 -86v-84h-128v-982l128 -66v-102h-564v102l278 66v238h-176q-228 0 -320 66q-186 132 -223 313zM302 434q28 -138 144 -214q84 -54 250 -54h172v166q0 124 -16 176 q-68 218 -226 260q-50 13 -92 13q-118 0 -184 -97q-56 -82 -56 -178q0 -35 8 -72z" />
<glyph unicode="r" d="M0 0v100l126 66v568h-126v78l200 86h90v-170q96 168 338 204q32 5 63 4q169 0 269 -142q0 -10 14 -26q14 -28 14 -66v-10q-6 -88 -80 -124q-31 -15 -60 -15q-41 0 -79 29q-61 47 -61 124v10q2 34 14 58q-22 6 -51 6q-46 0 -109 -16q-182 -48 -254 -266q-18 -62 -18 -180 v-150l338 -48v-120h-628z" />
<glyph unicode="s" d="M102 244l118 64q12 -76 84 -150q51 -55 185 -55q83 0 197 21q133 24 133 111q0 6 -1 13q-6 32 -36 46q-96 46 -222 46t-251 72t-139 184q-3 25 -3 48q0 128 85 186q152 105 310 105q167 0 340 -117q22 -16 40 -34q50 -50 48 -82q-10 -98 -72 -138q-38 -24 -88 -24 q-33 0 -72 10q-62 16 -87 89q-10 30 -10 56q0 38 21 67q-58 21 -112 21q-86 0 -164 -53q-42 -26 -45 -76v-7q0 -48 37 -109q136 -64 237 -64h6h7q100 0 228 -54q102 -38 134 -126q5 -34 6 -64q0 -215 -262 -248q-136 -19 -240 -19q-197 0 -284 67q-112 82 -128 214z" />
<glyph unicode="t" d="M70 746v164h178v264l158 152v-414h566v-168h-566v-408q0 -202 230 -202h48q-6 23 -6 45q0 55 41 96t96 41q23 0 48 -7q87 -23 109 -109q6 -23 6 -43q0 -41 -24 -73q-80 -116 -290 -116q-164 0 -274 84q-144 108 -144 242l2 452h-178z" />
<glyph unicode="u" d="M0 734v82l200 86h92v-446q0 -166 38 -240q39 -67 143 -67q51 0 118 16q203 49 253 233q18 72 18 174v166h-154v102l210 64h108v-684q0 -46 26 -72q26 -16 56 -10l24 8l34 -84l-16 -12q-63 -53 -146 -53q-24 0 -50 5q-58 12 -78 100l-16 72q-32 -68 -90 -108 q-78 -68 -240 -90q-40 -6 -77 -6q-179 0 -277 138q-50 76 -50 330v298z" />
<glyph unicode="v" d="M0 752v150h462v-144l-168 -22l280 -624l266 622l-148 24v144h458v-152l-126 -22l-370 -796h-162l-370 808z" />
<glyph unicode="w" d="M0 754v148h464v-134l-172 -26l110 -476l116 362h112l142 -368l86 480l-164 28v132h456v-134l-130 -24l-164 -810h-110l-168 456l-142 -456h-112l-196 808z" />
<glyph unicode="x" d="M2 0v112l100 26l362 306l-382 322l-80 22v114h462v-114l-144 -22l250 -218l250 218l-126 22v114h456v-114l-82 -22l-388 -322l366 -306l104 -26v-112h-456v112l108 26l-232 198l-230 -198l126 -26v-112h-464z" />
<glyph unicode="y" d="M-112 -156q-1 7 -1 13q0 45 35 85q39 49 101 49q14 0 28 -2q81 -13 105 -81q8 -21 8 -43q0 -46 -36 -91l40 -16q52 -21 96 -21q104 0 160 117l90 190l-388 696l-124 16v148h466v-144l-168 -22l302 -546l242 536l-148 34v142h456v-158l-130 -20l-462 -952 q-70 -146 -224 -176q-33 -7 -68 -7q-90 0 -188 45q-176 82 -192 208z" />
<glyph unicode="z" d="M84 0v102l654 632h-500l-46 -164h-92v332h928v-98l-656 -640h570l32 152h94v-316h-984z" />
<glyph unicode="{" d="M238 632v142h86q184 0 184 190v476q0 166 272 166h168v-144h-66q-188 0 -188 -114v-374q0 -164 -152 -268q152 -88 152 -282v-442q26 -86 206 -94l48 -2v-144h-130q-308 0 -308 192v488q0 210 -190 210h-82z" />
<glyph unicode="|" d="M504 -338v1970h140v-1970h-140z" />
<glyph unicode="}" d="M178 -114l48 2q180 8 206 94v442q0 194 152 282q-152 104 -152 268v374q0 114 -188 114h-66v144h168q272 0 272 -166v-476q0 -190 184 -190h86v-142h-82q-190 0 -190 -210v-488q0 -192 -308 -192h-130v144z" />
<glyph unicode="~" d="M186 406q26 362 242 362q130 0 166 -46l46 -58q54 -68 127 -49t75 129h122q0 -324 -208 -332q-102 -4 -178 80l-42 46q-42 46 -106 40q-94 -6 -116 -172h-128z" />
<glyph unicode="&#xad;" d="M102 440v166h946v-166h-946z" />
<glyph unicode="&#xd7;" horiz-adv-x="1190" d="M100 799l89 97l308 -292l286 302l95 -89l-287 -302l305 -290l-92 -97l-305 289l-289 -304l-95 89l289 305z" />
<glyph unicode="&#x2000;" horiz-adv-x="832" />
<glyph unicode="&#x2001;" horiz-adv-x="1664" />
<glyph unicode="&#x2002;" horiz-adv-x="832" />
<glyph unicode="&#x2003;" horiz-adv-x="1664" />
<glyph unicode="&#x2004;" horiz-adv-x="554" />
<glyph unicode="&#x2005;" horiz-adv-x="416" />
<glyph unicode="&#x2006;" horiz-adv-x="277" />
<glyph unicode="&#x2007;" horiz-adv-x="277" />
<glyph unicode="&#x2008;" horiz-adv-x="208" />
<glyph unicode="&#x2009;" horiz-adv-x="332" />
<glyph unicode="&#x200a;" horiz-adv-x="92" />
<glyph unicode="&#x2010;" d="M102 440v166h946v-166h-946z" />
<glyph unicode="&#x2011;" d="M102 440v166h946v-166h-946z" />
<glyph unicode="&#x2012;" d="M102 440v166h946v-166h-946z" />
<glyph unicode="&#x2013;" d="M42 440v166h1066v-166h-1066z" />
<glyph unicode="&#x2014;" d="M0 440v166h1148v-166h-1148z" />
<glyph unicode="&#x2018;" d="M492 1144q-4 164 82 300q110 156 252 120v-90q-70 10 -122 -72q-38 -54 -46 -112h24q102 -8 148 -82t-11 -145t-157 -66t-148 79q-20 30 -22 68z" />
<glyph unicode="&#x2019;" d="M320 1362q-46 74 11 145t157 66t148 -79q20 -30 22 -68q4 -164 -82 -300q-110 -156 -252 -120v90q70 -10 122 72q38 54 46 112h-24q-102 8 -148 82z" />
<glyph unicode="&#x201c;" d="M212 1144q-4 164 82 300q110 156 252 120v-90q-70 10 -122 -72q-38 -54 -46 -112h24q102 -8 148 -82t-11 -145t-157 -66t-148 79q-20 30 -22 68zM712 1144q-4 164 82 300q110 156 252 120v-90q-70 10 -122 -72q-38 -54 -46 -112h24q102 -8 148 -82t-11 -145t-157 -66 t-148 79q-20 30 -22 68z" />
<glyph unicode="&#x201d;" d="M100 1354q-46 74 11 145t157 66t148 -79q20 -30 22 -68q4 -164 -82 -300q-110 -156 -252 -120v90q70 -10 122 72q38 54 46 112h-24q-102 8 -148 82zM600 1354q-46 74 11 145t157 66t148 -79q20 -30 22 -68q4 -164 -82 -300q-110 -156 -252 -120v90q70 -10 122 72 q38 54 46 112h-24q-102 8 -148 82z" />
<glyph unicode="&#x202f;" horiz-adv-x="332" />
<glyph unicode="&#x205f;" horiz-adv-x="416" />
<glyph unicode="&#xe000;" horiz-adv-x="900" d="M0 0v900h900v-900h-900z" />
</font>
</defs>
</svg>
